<?xml version="1.0" standalone="no"?>
<!DOCTYPE svg PUBLIC "-//W3C//DTD SVG 1.1//EN" "http://www.w3.org/Graphics/SVG/1.1/DTD/svg11.dtd">
<svg xmlns="http://www.w3.org/2000/svg">
<metadata>Copyright (C) 2025 by original authors @ fontello.com</metadata>
<defs>
<font id="roxhill" horiz-adv-x="1000" >
<font-face font-family="roxhill" font-weight="400" font-stretch="normal" units-per-em="1000" ascent="850" descent="-150" />
<missing-glyph horiz-adv-x="1000" />
<glyph glyph-name="article" unicode="&#xe800;" d="M162 772c23 23 55 36 88 36h333c11 0 22-4 30-12l250-250c8-8 12-18 12-29v-500c0-34-13-65-37-89-23-23-55-36-88-36h-500c-33 0-65 13-88 36-24 24-37 55-37 89v666c0 34 13 65 37 89z m88-47c-11 0-22-4-29-12-8-8-13-19-13-30v-666c0-11 5-22 13-30 7-8 18-12 29-12h500c11 0 22 4 30 12 7 8 12 19 12 30v482l-226 226h-316z m333 83c23 0 42-18 42-41v-209h208c23 0 42-18 42-41 0-23-19-42-42-42h-250c-23 0-41 19-41 42v250c0 23 18 41 41 41z m-291-500c0 23 18 42 41 42h334c23 0 41-19 41-42 0-23-18-41-41-41h-334c-23 0-41 18-41 41z m0-166c0 23 18 41 41 41h334c23 0 41-18 41-41 0-23-18-42-41-42h-334c-23 0-41 19-41 42z m0 333c0 23 18 42 41 42h84c23 0 41-19 41-42 0-23-18-42-41-42h-84c-23 0-41 19-41 42z" horiz-adv-x="1000" />

<glyph glyph-name="bar-chart-2" unicode="&#xe801;" d="M500 475c23 0 42-19 42-42v-416c0-23-19-42-42-42-23 0-42 19-42 42v416c0 23 19 42 42 42z m250 250c23 0 42-19 42-42v-666c0-23-19-42-42-42-23 0-42 19-42 42v666c0 23 19 42 42 42z m-500-500c23 0 42-19 42-42v-166c0-23-19-42-42-42-23 0-42 19-42 42v166c0 23 19 42 42 42z" horiz-adv-x="1000" />

<glyph glyph-name="bar-chart" unicode="&#xe802;" d="M750 475c23 0 42-19 42-42v-416c0-23-19-42-42-42-23 0-42 19-42 42v416c0 23 19 42 42 42z m-250 250c23 0 42-19 42-42v-666c0-23-19-42-42-42-23 0-42 19-42 42v666c0 23 19 42 42 42z m-250-417c23 0 42-18 42-41v-250c0-23-19-42-42-42-23 0-42 19-42 42v250c0 23 19 41 42 41z" horiz-adv-x="1000" />

<glyph glyph-name="calendar" unicode="&#xe803;" d="M792-108h-584c-70 0-125 54-125 125v583c0 71 55 125 125 125h84v42c0 25 16 41 41 41s42-16 42-41v-42h250v42c0 25 17 41 42 41s41-16 41-41v-42h84c71 0 125-54 125-125v-583c0-71-54-125-125-125z m-625 500v-375c0-25 16-42 41-42h584c25 0 41 17 41 42v375h-666z m0 83h666v125c0 25-16 42-41 42h-84v-42c0-25-16-42-41-42s-42 17-42 42v42h-250v-42c0-25-17-42-42-42s-41 17-41 42v42h-84c-25 0-41-17-41-42v-125z" horiz-adv-x="1000" />

<glyph glyph-name="chat-2" unicode="&#xe804;" d="M208 683c-11 0-21-4-29-12-8-8-12-18-12-29v-566l95 95c8 8 19 12 30 12h500c11 0 21 5 29 13 8 7 12 18 12 29v417c0 11-4 21-12 29-8 8-18 12-29 12h-584z m-88 47c23 24 55 37 88 37h584c33 0 65-13 88-37 24-23 37-55 37-88v-417c0-33-13-65-37-88-23-24-55-37-88-37h-483l-154-155c-12-11-30-15-46-9-15 7-26 22-26 39v667c0 33 14 65 37 88z m342-301c0 28 23 50 51 50 28 0 50-22 50-50 0-28-22-51-50-51-28 0-51 23-51 51z m177 0c0 28 23 50 51 50 28 0 50-22 50-50 0-28-22-51-50-51-28 0-51 23-51 51z m-354 0c0 28 23 50 51 50 28 0 50-22 50-50 0-28-22-51-50-51-28 0-51 23-51 51z" horiz-adv-x="1000" />

<glyph glyph-name="chat" unicode="&#xe805;" d="M208 683c-11 0-21-4-29-12-8-8-12-18-12-29v-566l95 95c8 8 19 12 30 12h500c11 0 21 5 29 13 8 7 12 18 12 29v417c0 11-4 21-12 29-8 8-18 12-29 12h-584z m-88 47c23 24 55 37 88 37h584c33 0 65-13 88-37 24-23 37-55 37-88v-417c0-33-13-65-37-88-23-24-55-37-88-37h-483l-154-155c-12-11-30-15-46-9-15 7-26 22-26 39v667c0 33 14 65 37 88z" horiz-adv-x="1000" />

<glyph glyph-name="chevron-down-double" unicode="&#xe806;" d="M262 338c17 16 43 16 59 0l179-179 179 179c16 16 43 16 59 0 16-16 16-43 0-59l-208-208c-17-17-43-17-59 0l-209 208c-16 16-16 43 0 59z m0 292c17 16 43 16 59 0l179-179 179 179c16 16 43 16 59 0 16-17 16-43 0-59l-208-209c-17-16-43-16-59 0l-209 209c-16 16-16 42 0 59z" horiz-adv-x="1000" />

<glyph glyph-name="chevron-down" unicode="&#xe807;" d="M221 505c16 16 42 16 59 0l220-221 221 221c16 16 42 16 59 0 16-17 16-43 0-59l-250-250c-17-17-43-17-59 0l-250 250c-17 16-17 42 0 59z" horiz-adv-x="1000" />

<glyph glyph-name="chevron-left-double" unicode="&#xe808;" d="M488 588c16-16 16-43 0-59l-179-179 179-179c16-16 16-42 0-59-16-16-43-16-59 0l-208 209c-17 16-17 42 0 59l208 208c16 16 43 16 59 0z m292 0c16-16 16-43 0-59l-179-179 179-179c16-16 16-42 0-59-17-16-43-16-59 0l-209 209c-16 16-16 42 0 59l209 208c16 16 42 16 59 0z" horiz-adv-x="1000" />

<glyph glyph-name="chevron-left" unicode="&#xe809;" d="M655 630c16-17 16-43 0-59l-221-221 221-220c16-17 16-43 0-59-17-17-43-17-59 0l-250 250c-17 16-17 42 0 59l250 250c16 16 42 16 59 0z" horiz-adv-x="1000" />

<glyph glyph-name="chevron-right-double" unicode="&#xe80a;" d="M512 588c17 16 43 16 59 0l209-208c16-17 16-43 0-59l-209-209c-16-16-42-16-59 0-16 17-16 43 0 59l179 179-179 179c-16 16-16 43 0 59z m-291 0c16 16 42 16 59 0l208-208c16-17 16-43 0-59l-208-209c-17-16-43-16-59 0-17 17-17 43 0 59l178 179-178 179c-17 16-17 43 0 59z" horiz-adv-x="1000" />

<glyph glyph-name="chevron-right" unicode="&#xe80b;" d="M346 630c16 16 42 16 59 0l250-250c16-17 16-43 0-59l-250-250c-17-17-43-17-59 0-17 16-17 42 0 59l220 220-220 221c-17 16-17 42 0 59z" horiz-adv-x="1000" />

<glyph glyph-name="chevron-up-double" unicode="&#xe80c;" d="M471 630c16 16 42 16 59 0l208-209c16-16 16-42 0-59-16-16-43-16-59 0l-179 179-179-179c-16-16-42-16-59 0-16 17-16 43 0 59l209 209z m0-292c16 16 42 16 59 0l208-208c16-17 16-43 0-59-16-17-43-17-59 0l-179 178-179-178c-16-17-42-17-59 0-16 16-16 42 0 59l209 208z" horiz-adv-x="1000" />

<glyph glyph-name="chevron-up" unicode="&#xe80d;" d="M471 505c16 16 42 16 59 0l250-250c16-17 16-43 0-59-17-17-43-17-59 0l-221 220-220-220c-17-17-43-17-59 0-17 16-17 42 0 59l250 250z" horiz-adv-x="1000" />

<glyph glyph-name="cog" unicode="&#xe80e;" d="M500 419c-38 0-69-31-69-69 0-38 31-69 69-69 38 0 69 31 69 69 0 38-31 69-69 69z m-139-69c0 77 62 139 139 139 77 0 139-62 139-139 0-77-62-139-139-139-77 0-139 62-139 139z m139 347c-9 0-18-3-25-10-6-6-10-15-10-24v-6c0-18-5-36-15-51-10-15-24-27-40-34-3-1-6-2-10-2-15-5-31-7-46-4-19 3-35 12-48 25l-1 0-2 2c-3 3-7 6-11 8-4 2-9 2-13 2-5 0-9 0-14-2-4-2-8-5-11-8l0 0c-3-3-6-7-7-11-2-4-3-9-3-13 0-5 1-9 3-14 1-4 4-8 7-11l2-2c13-13 22-30 25-48 3-18 1-36-6-53-6-17-17-31-32-42-15-11-33-17-52-17l0 0h-3c-10 0-18-4-25-10-7-7-10-16-10-25 0-9 3-18 10-24 7-7 15-10 25-10h6c18-1 35-6 50-16 15-10 27-24 34-40 7-17 9-35 6-53-3-19-12-35-25-48l0-1-2-2c-3-3-6-7-8-11-1-4-2-9-2-13 0-5 1-9 2-14 2-4 5-8 8-11l0 0c3-3 7-6 11-7 4-2 9-3 13-3 5 0 10 1 14 3 4 1 8 4 11 7l2 2c14 13 30 22 48 25 18 3 36 1 53-6 17-6 31-17 42-32 11-15 17-33 17-52l0 0v-3c0-10 4-18 10-25 7-7 16-10 25-10 9 0 18 3 24 10 7 7 11 15 11 25v5l0 1c0 18 5 35 15 50 10 15 24 27 40 34 17 7 36 9 54 6 18-3 34-12 47-25l1 0 2-2c3-3 7-6 11-8 4-1 9-2 13-2 5 0 9 1 14 2 4 2 8 5 11 8l0 0c3 3 6 7 8 11 1 4 2 9 2 13 0 5-1 10-2 14-2 4-5 8-8 11l-2 2c-13 14-22 30-25 48-3 18-1 37 6 54 7 16 19 30 34 40 15 10 32 15 50 15l0 0 4 0c9 0 18 4 24 10 7 7 10 16 10 25 0 9-3 18-10 25-6 6-15 10-24 10h-6l0 0c-18 0-36 5-51 15-15 10-27 24-34 41-1 2-2 6-2 9-5 15-7 31-4 47 3 18 12 34 25 47l0 1 2 2c3 3 6 7 8 11 2 4 2 9 2 13 0 5 0 9-2 14-2 4-5 8-8 11l0 0c-3 3-7 6-11 8-4 1-9 2-13 2-5 0-9-1-14-2-4-2-8-5-11-8l-2-2c-13-13-30-22-48-25-18-3-37-1-54 6-16 7-30 19-40 34-10 15-15 32-15 50l0 0v4c0 9-4 18-10 24-7 7-16 10-25 10z m257-451l32-14c-2-4-3-9-2-13 1-5 3-9 6-12l2-2c0 0 0 0 0 0 10-9 17-21 23-34 5-12 8-26 8-40 0-13-3-27-8-39-6-13-13-25-23-34l-24 24 24-24c-10-10-21-18-34-23-12-5-26-8-40-8-13 0-27 3-39 8-13 5-25 13-34 23 0 0 0 0 0 0l-2 2c-3 3-7 5-12 6-4 0-9 0-13-2l0 0c-4-2-8-5-10-8-3-4-4-8-4-13v-5c0-28-11-55-31-74-19-20-46-31-73-31-28 0-54 11-74 31-19 19-30 46-30 74v2c-1 5-2 9-5 12-2 4-6 7-10 9-1 0-1 0-2 0-4 2-9 3-13 2-5-1-9-3-12-6l-2-2c0 0 0 0 0 0-10-10-21-17-34-23-12-5-26-8-40-8-13 0-27 3-39 8-13 6-25 13-34 23-10 10-18 21-23 34-5 12-8 26-8 40 0 13 3 27 8 40 5 12 13 24 23 33l2 2c3 4 5 8 6 12 0 4 0 9-2 13l0 0c-2 4-5 8-8 10-4 3-8 4-13 4h-5c-28 0-55 11-74 31-20 19-31 46-31 73 0 28 11 54 31 74 19 19 46 30 74 30h2c5 1 9 2 12 5 4 2 7 6 9 10 0 1 0 2 0 2 2 4 3 9 2 13-1 5-3 9-6 12l-2 2c-10 10-17 21-23 34-5 12-8 26-8 40 0 13 3 27 8 40 6 12 13 24 23 33 10 10 21 18 34 23 12 5 26 8 40 8 13 0 27-3 40-8 12-5 24-13 33-23l2-2c4-3 8-5 12-6 4 0 9 0 13 2 2 1 5 2 7 2 2 2 5 4 6 6 3 4 4 8 4 13v6c0 27 11 54 30 73 20 20 46 31 74 31 28 0 54-11 74-31 19-19 30-46 30-73v-3c0-5 2-9 4-13 2-3 6-6 10-8l0 0c4-2 9-3 13-2 5 1 9 3 12 6l2 2c10 10 21 17 34 23 12 5 26 8 40 8 13 0 27-3 40-8 12-6 24-13 33-23 10-10 18-21 23-34 5-12 8-26 8-40 0-13-3-27-8-39-5-13-13-25-23-34 0 0 0 0 0 0l-2-2c-3-3-5-7-6-12 0-4 0-9 2-13 1-2 2-5 2-7 2-2 4-4 6-6 4-2 8-4 13-4h6c27 0 54-11 73-30 20-20 31-46 31-74 0-28-11-54-31-74-19-19-46-30-73-30h-3c-5 0-9-1-13-4-3-2-6-6-8-10l-32 14z" horiz-adv-x="1000" />

<glyph glyph-name="copy" unicode="&#xe80f;" d="M462 426c-21 0-38-17-38-38v-341c0-21 17-38 38-38h341c21 0 38 17 38 38v341c0 21-17 38-38 38h-341z m-113-38c0 63 50 114 113 114h341c63 0 114-51 114-114v-341c0-63-51-114-114-114h-341c-63 0-113 51-113 114v341z m-152 303c-10 0-20-4-27-11-7-7-11-17-11-27v-341c0-10 4-20 11-27 7-7 17-11 27-11h38c21 0 38-17 38-38 0-21-17-37-38-37h-38c-30 0-59 12-80 33-22 21-34 50-34 80v341c0 30 12 59 34 80 21 22 50 34 80 34h341c30 0 59-12 80-34 22-21 34-50 34-80v-38c0-21-17-38-38-38-21 0-38 17-38 38v38c0 10-4 20-11 27-7 7-17 11-27 11h-341z" horiz-adv-x="1000" />

<glyph glyph-name="cross-circle" unicode="&#xe810;" d="M500 725c-207 0-375-168-375-375 0-207 168-375 375-375 207 0 375 168 375 375 0 207-168 375-375 375z m-458-375c0 253 205 458 458 458 253 0 458-205 458-458 0-253-205-458-458-458-253 0-458 205-458 458z m613 155c16-17 16-43 0-59l-250-250c-17-17-43-17-59 0-17 16-17 42 0 59l250 250c16 16 42 16 59 0z m-309 0c16 16 42 16 59 0l250-250c16-17 16-43 0-59-17-17-43-17-59 0l-250 250c-17 16-17 42 0 59z" horiz-adv-x="1000" />

<glyph glyph-name="cross-square" unicode="&#xe811;" d="M208 683c-23 0-41-18-41-41v-584c0-23 18-41 41-41h584c23 0 41 18 41 41v584c0 23-18 41-41 41h-584z m-125-41c0 69 56 125 125 125h584c69 0 125-56 125-125v-584c0-69-56-125-125-125h-584c-69 0-125 56-125 125v584z m263-137c16 16 42 16 59 0l250-250c16-17 16-43 0-59-17-17-43-17-59 0l-250 250c-17 16-17 42 0 59z m309 0c16-17 16-43 0-59l-250-250c-17-17-43-17-59 0-17 16-17 42 0 59l250 250c16 16 42 16 59 0z" horiz-adv-x="1000" />

<glyph glyph-name="cross" unicode="&#xe812;" d="M780 630c16-17 16-43 0-59l-500-500c-17-17-43-17-59 0-17 16-17 42 0 59l500 500c16 16 42 16 59 0z m-559 0c16 16 42 16 59 0l500-500c16-17 16-43 0-59-17-17-43-17-59 0l-500 500c-17 16-17 42 0 59z" horiz-adv-x="1000" />

<glyph glyph-name="crosshair" unicode="&#xe813;" d="M500 725c-207 0-375-168-375-375 0-207 168-375 375-375 207 0 375 168 375 375 0 207-168 375-375 375z m-458-375c0 253 205 458 458 458 253 0 458-205 458-458 0-253-205-458-458-458-253 0-458 205-458 458z m666 0c0 23 19 42 42 42h167c23 0 41-19 41-42 0-23-18-42-41-42h-167c-23 0-42 19-42 42z m-666 0c0 23 18 42 41 42h167c23 0 42-19 42-42 0-23-19-42-42-42h-167c-23 0-41 19-41 42z m458 458c23 0 42-18 42-41v-167c0-23-19-42-42-42-23 0-42 19-42 42v167c0 23 19 41 42 41z m0-666c23 0 42-19 42-42v-167c0-23-19-41-42-41-23 0-42 18-42 41v167c0 23 19 42 42 42z" horiz-adv-x="1000" />

<glyph glyph-name="cursor" unicode="&#xe814;" d="M946 796c13-12 16-31 8-47l-375-792c-7-16-24-25-41-24-18 2-32 15-37 32l-77 309-309 77c-17 5-30 19-31 37-2 17 7 34 23 41l792 375c16 8 35 5 47-8z m-698-392l220-55c15-4 27-16 31-31l55-220 275 581-581-275z" horiz-adv-x="1000" />

<glyph glyph-name="custom" unicode="&#xe815;" d="M691 710c-28 6-56 6-85 1-43-8-84-29-115-60-31-32-53-72-61-116-7-44-2-89 16-129 6-12 3-26-6-35l-288-288c-11-11-17-25-17-40 0-16 6-30 17-41 11-11 25-17 41-17 15 0 29 6 40 17l288 288c9 9 23 12 35 6 40-18 85-23 129-16 44 8 84 30 116 61 31 31 52 72 60 115 5 29 5 57-1 85l-121-122c-14-13-32-20-52-20-19 0-37 7-51 20l0 1-67 66c-13 14-20 32-20 52 0 19 7 37 20 51l1 0 121 121z m-96 63c57 10 115 3 167-21 9-4 16-13 17-23 2-10-1-20-8-27l-157-157c-2-2-3-5-3-7 0-3 1-6 3-8l66-66c2-2 5-3 7-3 3 0 6 1 8 3l157 157c7 7 17 10 27 8 10-1 19-8 23-17 24-52 31-110 21-167-11-56-38-108-78-148-41-41-92-68-149-78-49-9-99-5-146 12l-273-273c-22-23-53-35-84-35-32 0-63 12-85 35-23 22-35 53-35 85 0 31 12 62 35 84l273 273c-17 47-21 97-12 146 10 57 37 108 78 149 40 40 92 67 148 78z" horiz-adv-x="1000" />

<glyph glyph-name="delete" unicode="&#xe816;" d="M708-108h-416c-71 0-125 54-125 125v541h-42c-25 0-42 17-42 42s17 42 42 42h167v41c0 71 54 125 125 125h166c71 0 125-54 125-125v-41h167c25 0 42-17 42-42s-17-42-42-42h-42v-541c0-71-54-125-125-125z m-458 666v-541c0-25 17-42 42-42h416c25 0 42 17 42 42v541h-500z m125 84h250v41c0 25-17 42-42 42h-166c-25 0-42-17-42-42v-41z m208-542c-25 0-41 17-41 42v250c0 25 16 41 41 41s42-16 42-41v-250c0-25-17-42-42-42z m-166 0c-25 0-42 17-42 42v250c0 25 17 41 42 41s41-16 41-41v-250c0-25-16-42-41-42z" horiz-adv-x="1000" />

<glyph glyph-name="download" unicode="&#xe817;" d="M125 267c23 0 42-19 42-42v-167c0-11 4-21 12-29 8-8 18-12 29-12h584c11 0 21 4 29 12 8 8 12 18 12 29v167c0 23 19 42 42 42 23 0 42-19 42-42v-167c0-33-13-65-37-88-23-24-55-37-88-37h-584c-33 0-65 13-88 37-23 23-37 55-37 88v167c0 23 19 42 42 42z m137 196c17 16 43 16 59 0l179-179 179 179c16 16 43 16 59 0 16-16 16-43 0-59l-208-208c-17-17-43-17-59 0l-209 208c-16 16-16 43 0 59z m238 304c23 0 42-19 42-42v-500c0-23-19-42-42-42-23 0-42 19-42 42v500c0 23 19 42 42 42z" horiz-adv-x="1000" />

<glyph glyph-name="edit" unicode="&#xe818;" d="M116 654c22 21 50 33 80 33h264c21 0 38-17 38-38 0-21-17-38-38-38h-264c-10 0-19-4-26-11-7-7-11-16-11-26v-528c0-10 4-19 11-26 7-7 16-11 26-11h528c10 0 19 4 26 11 7 7 11 16 11 26v264c0 21 17 38 38 38 21 0 38-17 38-38v-264c0-30-12-58-33-80-21-21-50-33-80-33h-528c-30 0-58 12-80 33-21 22-33 50-33 80v528c0 30 12 59 33 80z m683 37c-11 0-22-4-30-12l-350-350-20-80 80 20 350 350c8 8 12 19 12 30 0 11-4 22-12 30-8 8-19 12-30 12z m-83 41c22 22 52 35 83 35 31 0 61-13 83-35 22-22 35-52 35-83 0-31-13-61-35-83l-358-358c-4-5-10-8-17-10l-151-37c-13-4-26 0-36 9-9 10-13 23-9 36l37 151c2 7 5 13 10 17l358 358z" horiz-adv-x="1000" />

<glyph glyph-name="expand" unicode="&#xe819;" d="M583 725c0 23 19 42 42 42h250c23 0 42-19 42-42v-250c0-23-19-42-42-42-23 0-42 19-42 42v208h-208c-23 0-42 19-42 42z m-458-458c23 0 42-19 42-42v-208h208c23 0 42-19 42-42 0-23-19-42-42-42h-250c-23 0-42 19-42 42v250c0 23 19 42 42 42z m780 488c16-17 16-43 0-59l-292-292c-16-16-43-16-59 0-16 16-16 43 0 59l292 292c16 16 42 16 59 0z m-459-459c16-16 16-42 0-59l-291-292c-17-16-43-16-59 0-17 17-17 43 0 60l291 291c17 16 43 16 59 0z" horiz-adv-x="1000" />

<glyph glyph-name="external" unicode="&#xe81a;" d="M567 650c0 18 15 33 33 33h200c18 0 33-15 33-33v-200c0-18-15-33-33-33-18 0-33 15-33 33v167h-167c-18 0-33 15-33 33z m-300-133c-9 0-18-4-24-10-6-6-10-15-10-24v-366c0-9 4-18 10-24 6-6 15-10 24-10h366c9 0 18 4 24 10 6 6 10 15 10 24v200c0 18 15 33 33 33 18 0 33-15 33-33v-200c0-27-10-52-29-71-19-19-44-29-71-29h-366c-27 0-52 10-71 29-19 19-29 44-29 71v366c0 27 10 52 29 71 19 19 44 29 71 29h200c18 0 33-15 33-33 0-18-15-33-33-33h-200z m557 157c13-13 13-35 0-48l-367-366c-13-13-34-13-47 0-13 13-13 34 0 47l366 367c13 13 35 13 48 0z" horiz-adv-x="1000" />

<glyph glyph-name="eye-off" unicode="&#xe81b;" d="M500 593c-22 0-44-2-65-7-19-5-37 7-42 26-4 18 8 37 26 41 27 7 54 10 81 10 0 0 0 0 0 0l0-35v35c0 0 0 0 0 0 135 0 239-78 307-150 35-37 61-73 79-101 8-13 15-25 20-33 2-4 4-7 5-10 1-1 1-2 1-2l1-1 0 0 0 0c0 0 0 0-31-16l-31 16c-3-5-6-10-9-16-3 7-8 15-15 25-16 24-39 57-70 90-62 67-149 128-257 128l0 0z m342-243c-18-31-38-61-62-88-12-15-10-37 5-49 14-13 36-11 49 4 30 36 56 75 79 117 5 10 5 22 0 32l-31-16c-31-15-31-15-31-15l0 0 0 0c-1 0-1 1-1 2-1 2-3 4-5 8-1 2-2 3-3 5z m-569 234c14 10 33 9 45-3l133-133c0 0 0 0 0 0l147-147c0 0 0 0 0 0l133-133c7-7 11-17 10-27-1-10-6-19-14-25-65-50-144-77-226-78l-1 0c-135 0-239 77-307 149-35 37-61 74-79 101-8 13-15 25-20 33-2 4-4 7-5 10-1 1-1 2-1 2l-1 1 0 0 0 0c0 0 0 1 31 16l-31-15c-5 10-5 22 1 31 45 85 108 159 185 218z m-115-234c4-7 9-15 15-25 16-24 39-57 70-90 62-66 149-128 257-128 53 1 106 16 152 42l-81 81c-5-4-11-7-17-9-17-8-35-12-54-12-19-1-37 3-55 10-17 7-33 17-46 30-13 13-23 29-30 46-7 18-11 36-10 55 0 19 4 37 12 54 2 6 5 12 9 17l-89 89c-53-45-98-99-133-160z m274 19c-3-6-4-13-4-20 0-10 2-19 5-28 4-8 9-16 15-23 7-6 15-11 23-15 9-3 18-5 28-5 7 0 14 1 20 4l-87 87z m-338 388c13 13 35 13 49 0l764-764c13-14 13-36 0-50-14-13-36-13-50 0l-763 764c-14 14-14 36 0 50z" horiz-adv-x="1000" />

<glyph glyph-name="eye-on" unicode="&#xe81c;" d="M500-25c-312 0-487 342-496 358-4 13-4 25 0 38 9 12 184 354 496 354s488-342 496-358c4-13 4-25 0-38-8-12-183-354-496-354z m-412 375c37-67 187-292 412-292 225 0 371 225 413 292-38 67-188 292-413 292-225 0-371-225-412-292z m412-167c-92 0-167 75-167 167 0 92 75 167 167 167 92 0 167-75 167-167 0-92-75-167-167-167z m0 250c-46 0-83-37-83-83 0-46 37-83 83-83 46 0 83 37 83 83 0 46-37 83-83 83z" horiz-adv-x="1000" />

<glyph glyph-name="file" unicode="&#xe81d;" d="M162 772c23 23 55 36 88 36h292c11 0 21-4 29-12l292-291c8-8 12-19 12-30v-458c0-34-13-65-37-89-23-23-55-36-88-36h-500c-33 0-65 13-88 36-24 24-37 55-37 89v666c0 34 13 65 37 89z m88-47c-11 0-22-4-29-12-8-8-13-19-13-30v-666c0-11 5-22 13-30 7-8 18-12 29-12h500c11 0 22 4 30 12 7 8 12 19 12 30v441l-268 267h-274z m292 83c23 0 41-18 41-41v-250h250c23 0 42-19 42-42 0-23-19-42-42-42h-291c-23 0-42 19-42 42v292c0 23 19 41 42 41z" horiz-adv-x="1000" />

<glyph glyph-name="filter" unicode="&#xe81e;" d="M87 707c6 13 20 22 34 22h758c15 0 28-9 34-22 6-13 4-29-5-41l-294-347v-310c0-13-7-25-18-32-11-7-25-8-37-2l-152 76c-12 6-21 20-21 34v234l-294 347c-9 12-11 28-5 41z m116-54l250-296c6-7 9-15 9-24v-225l76-38v263c0 9 3 17 9 24l250 296h-594z" horiz-adv-x="1000" />

<glyph glyph-name="flag" unicode="&#xe81f;" d="M652 161c-58 2-114 16-166 40-43 21-90 33-137 35-93 0-126-27-126-27-6-5-12-8-20-9-7-2-14-1-21 2-7 3-12 8-16 14-4 6-7 13-7 20v455c0 5 1 10 3 15 2 4 5 8 8 12 8 8 55 49 179 49 57-3 113-16 165-41 43-20 90-32 138-35 92 0 125 27 125 28 6 4 12 8 20 9 7 1 14 0 21-3 7-3 12-8 16-14 5-6 7-13 7-20v-455c0-5-1-10-3-14-2-5-5-9-8-12-8-8-55-49-178-49z m-303 151c57-2 113-16 165-40 43-21 90-33 138-36 39-1 77 6 113 21v373c-37-11-75-16-113-15-58 2-114 16-166 41-43 20-90 32-137 35-39 2-78-5-114-20v-374c37 11 75 16 114 15z m-152-379c-10 0-20 4-27 11-7 7-11 17-11 27l0 265c0 10 4 20 11 27 7 7 17 11 27 11 10 0 20-4 27-11 7-7 11-17 11-27v-265c0-10-4-20-11-27-7-7-17-11-27-11z" horiz-adv-x="1000" />

<glyph glyph-name="folder-minus" unicode="&#xe820;" d="M42 571c0 22 19 39 43 39h716c87 0 157-64 157-143v-390c0-80-70-144-157-144h-602c-87 0-157 64-157 144v494z m86-39v-455c0-36 32-65 71-65h602c39 0 71 29 71 65v390c0 36-32 65-71 65h-673z m205-265c0 23 19 41 42 41 23 0 250 0 250 0 23 0 42-18 42-41 0-23-19-42-42-42h-250c-23 0-42 19-42 42z m-291 356c0 80 70 144 157 144h233c58 0 111-29 138-75l54-89c11-19 3-43-17-53-21-10-47-3-59 16l-53 89c-13 21-37 34-63 34h-233c-39 0-71-30-71-66v-221c0-21-20-39-43-39-24 0-43 18-43 39v221z" horiz-adv-x="1000" />

<glyph glyph-name="clock" unicode="&#xe821;" d="M500 725c-207 0-375-168-375-375 0-207 168-375 375-375 207 0 375 168 375 375 0 207-168 375-375 375z m-458-375c0 253 205 458 458 458 253 0 458-205 458-458 0-253-205-458-458-458-253 0-458 205-458 458z m458 292c23 0 42-19 42-42v-224l143-72c21-10 29-35 19-56-10-20-35-29-56-19l-167 84c-14 7-23 21-23 37v250c0 23 19 42 42 42z" horiz-adv-x="1000" />

<glyph glyph-name="folder" unicode="&#xe822;" d="M42 571c0 22 19 39 43 39h716c87 0 157-64 157-143v-390c0-80-70-144-157-144h-602c-87 0-157 64-157 144v494z m86-39v-455c0-36 32-65 71-65h602c39 0 71 29 71 65v390c0 36-32 65-71 65h-673z m-86 91c0 80 70 144 157 144h233c58 0 111-29 138-75l54-89c11-19 3-43-17-53-21-10-47-3-59 16l-53 89 0 0c-13 21-37 34-63 34h-233c-39 0-71-30-71-66v-221c0-21-20-39-43-39-24 0-43 18-43 39v221z" horiz-adv-x="1000" />

<glyph glyph-name="grid" unicode="&#xe823;" d="M83 726c0 23 18 41 41 41h292c23 0 41-18 41-41v-292c0-23-18-41-41-41h-292c-23 0-41 18-41 41v292z m81-40v-212h212v212h-212z m379 40c0 23 18 41 41 41h292c23 0 41-18 41-41v-292c0-23-18-41-41-41h-292c-23 0-41 18-41 41v292z m81-40v-212h212v212h-212z m-81-420c0 23 18 41 41 41h292c23 0 41-18 41-41v-292c0-23-18-41-41-41h-292c-23 0-41 18-41 41v292z m81-40v-212h212v212h-212z m-541 40c0 23 18 41 41 41h292c23 0 41-18 41-41v-292c0-23-18-41-41-41h-292c-23 0-41 18-41 41v292z m81-40v-212h212v212h-212z" horiz-adv-x="1000" />

<glyph glyph-name="guide" unicode="&#xe824;" d="M42 725c0 23 18 42 41 42h250c56 0 109-22 148-61 39-39 61-92 61-148v-583c0-23-19-42-42-42-23 0-42 19-42 42 0 22-8 43-24 59-16 16-37 24-59 24h-292c-23 0-41 19-41 42v625z m416-606v439c0 34-13 65-36 89-24 23-55 36-89 36h-208v-541h250c30 0 58-8 83-23z m61 587c39 39 92 61 148 61h250c23 0 41-19 41-42v-625c0-23-18-42-41-42h-292c-22 0-43-8-59-24-16-16-24-37-24-59 0-23-19-42-42-42-23 0-42 19-42 42v583c0 56 22 109 61 148z m23-587c25 15 54 23 83 23h250v541h-208c-33 0-65-13-89-36-23-24-36-55-36-89v-439z" horiz-adv-x="1000" />

<glyph glyph-name="heart" unicode="&#xe825;" d="M496-20c-5 0-9 1-14 3-4 2-8 4-12 8l-323 323c-42 45-65 105-64 166 2 62 27 121 70 164 44 44 102 69 164 70 62 1 121-22 166-63l13-14 13 14c22 22 49 39 78 51 29 12 60 18 92 18 31 0 62-6 91-18 29-12 55-29 77-51 45-45 70-106 70-169 0-63-25-123-70-168l-323-323c-4-4-8-7-13-9-5-1-10-2-15-2z m-181 667c-32 0-64-10-91-28-27-18-48-44-61-74-12-30-15-63-9-95 6-32 22-61 45-84l297-298 297 298c16 15 28 33 36 53 9 20 13 42 13 63 0 22-4 43-13 63-8 20-20 38-36 54-30 30-71 47-114 48-22 0-43-4-63-13-20-8-38-20-53-35l-37-37c-3-3-7-6-12-8-4-2-9-3-14-3-5 0-9 1-14 3-4 2-8 5-12 8l-43 37c-15 15-33 27-53 35-20 9-41 13-63 13z" horiz-adv-x="1000" />

<glyph glyph-name="help-circle" unicode="&#xe826;" d="M500 725c-207 0-375-168-375-375 0-207 168-375 375-375 207 0 375 168 375 375 0 207-168 375-375 375z m-458-375c0 253 205 458 458 458 253 0 458-205 458-458 0-253-205-458-458-458-253 0-458 205-458 458z m469 166c-20 3-40-1-57-11-16-10-29-25-36-44-8-21-31-33-53-25-22 7-33 31-26 53 14 37 39 68 73 88 34 20 74 27 113 21 39-7 74-27 99-57 26-30 39-68 39-108 0-63-47-106-81-128-18-12-36-21-49-27-6-3-12-5-16-7-2 0-4-1-5-1l-1-1-1 0 0 0 0 0c0 0 0 0-13 39l13-39c-22-7-46 4-53 26-7 22 5 46 26 53l0 0c0 0 0 0 0 0l1 0c1 0 2 1 3 1 3 1 7 3 12 5 11 5 24 12 37 20 29 19 44 40 44 59l0 0c0 20-7 39-20 54-12 15-30 25-49 29z m-53-374c0 23 19 41 42 41h0c23 0 42-18 42-41 0-23-19-42-42-42h0c-23 0-42 19-42 42z" horiz-adv-x="1000" />

<glyph glyph-name="home" unicode="&#xe827;" d="M474 800c16 11 37 11 52 0l375-292c10-8 16-20 16-33v-458c0-34-13-65-37-89-23-23-55-36-88-36h-584c-33 0-65 13-88 36-23 24-37 55-37 89v458c0 13 6 25 16 33l375 292z m-307-345v-438c0-11 4-22 12-30 8-8 18-12 29-12h584c11 0 21 4 29 12 8 8 12 19 12 30v438l-333 259-333-259z m166-105c0 23 19 42 42 42h250c23 0 42-19 42-42v-417c0-23-19-41-42-41-23 0-42 18-42 41v375h-166v-375c0-23-19-41-42-41-23 0-42 18-42 41v417z" horiz-adv-x="1000" />

<glyph glyph-name="inbox" unicode="&#xe828;" d="M42 350c0 23 18 42 41 42h250c14 0 27-7 35-19l71-106h122l71 106c8 12 21 19 35 19h250c23 0 41-19 41-42 0-23-18-42-41-42h-228l-71-106c-8-12-21-19-35-19h-166c-14 0-27 7-35 19l-71 106h-228c-23 0-41 19-41 42z m260 375l396 0c24 0 46-6 66-19 20-12 36-29 46-50 0 0 0 0 0 0l144-287c3-6 4-12 4-19v-250c0-33-13-65-36-88-24-24-55-37-89-37h-666c-33 0-65 13-89 37-23 23-36 55-36 88v250c0 7 1 13 4 19l144 287c0 0 0 0 0 0 10 21 26 38 46 50 20 13 42 19 66 19z m-75-88l37-19-139-278v-240c0-11 4-22 12-29 8-8 19-13 30-13h666c11 0 22 5 30 13 8 7 12 18 12 29v240l-139 278 0 1c-4 7-9 12-16 16-6 5-14 7-22 7h-396c-8 0-16-2-22-7-7-4-12-9-16-16l-37 18z" horiz-adv-x="1000" />

<glyph glyph-name="info" unicode="&#xe829;" d="M500 725c-207 0-375-168-375-375 0-207 168-375 375-375 207 0 375 168 375 375 0 207-168 375-375 375z m-458-375c0 253 205 458 458 458 253 0 458-205 458-458 0-253-205-458-458-458-253 0-458 205-458 458z m458 42c23 0 42-19 42-42v-167c0-23-19-41-42-41-23 0-42 18-42 41v167c0 23 19 42 42 42z m-42 125c0 23 19 41 42 41h0c23 0 42-18 42-41 0-23-19-42-42-42h0c-23 0-42 19-42 42z" horiz-adv-x="1000" />

<glyph glyph-name="instagram" unicode="&#xe82a;" d="M308 703c-89 0-161-72-161-161v-384c0-89 72-161 161-161h384c89 0 161 72 161 161v384c0 89-72 161-161 161h-384z m-225-161c0 124 101 225 225 225h384c124 0 225-101 225-225v-384c0-124-101-225-225-225h-384c-124 0-225 101-225 225v384z m437-70c-26 4-52 0-74-12-23-12-42-31-53-54-12-22-16-48-12-74 5-25 16-48 35-66 18-19 41-30 66-35 26-4 52 0 74 12 23 11 42 30 54 53 12 22 16 48 12 74-4 25-16 49-34 68-19 18-43 30-68 34z m-104 45c35 18 74 24 113 19 39-6 76-25 104-53 28-28 47-65 53-104 5-39-1-78-19-113-18-35-47-63-82-80-35-18-74-24-113-18-38 6-74 25-102 52-27 28-46 64-52 102-6 39 0 78 18 113 17 35 45 64 80 82z m264 45c0 17 14 32 32 32h0c18 0 32-15 32-32 0-18-14-32-32-32h0c-18 0-32 14-32 32z" horiz-adv-x="1000" />

<glyph glyph-name="journalist-alert" unicode="&#xe82b;" d="M625 725c0 23 19 42 42 42h208c23 0 42-19 42-42v-208c0-23-19-42-42-42-23 0-42 19-42 42v166h-166c-23 0-42 19-42 42z m280 30c16-17 16-43 0-59l-709-709c-16-16-42-16-59 0-16 17-16 43 0 59l709 709c16 16 42 16 59 0z m-30-530c23 0 42-19 42-42v-208c0-23-19-42-42-42h-208c-23 0-42 19-42 42 0 23 19 42 42 42h166v166c0 23 19 42 42 42z m-279 30c16 16 42 16 59 0l250-250c16-17 16-43 0-60-17-16-43-16-59 0l-250 251c-17 16-17 42 0 59z m-459 458c17 16 43 16 59 0l209-208c16-17 16-43 0-59-17-17-43-17-59 0l-209 208c-16 16-16 43 0 59z" horiz-adv-x="1000" />

<glyph glyph-name="journalist" unicode="&#xe82c;" d="M465 689c50 50 117 78 187 78 70 0 138-28 187-78 50-49 78-116 78-187 0-70-28-137-78-186 0 0 0 0 0 0l-256-258c-7-7-16-11-26-11h-324c-19 0-35 16-35 36v324c0 10 3 19 10 25l257 257z m187 6c-51 0-100-20-136-56l-247-247v-273h273l247 247c36 36 56 85 56 136 0 52-20 101-56 137-36 36-86 56-137 56z m26-167c14-14 14-37 0-51l-534-533c-14-14-36-14-50 0-14 14-14 36 0 50l533 534c14 13 37 13 51 0z m-328-292c0 19 16 35 36 35h324c19 0 35-16 35-35 0-20-16-36-35-36h-324c-20 0-36 16-36 36z" horiz-adv-x="1000" />

<glyph glyph-name="kebab" unicode="&#xe82d;" d="M417 350c0 46 37 83 83 83 46 0 83-37 83-83 0-46-37-83-83-83-46 0-83 37-83 83z m0 292c0 46 37 83 83 83 46 0 83-37 83-83 0-46-37-84-83-84-46 0-83 38-83 84z m0-584c0 46 37 84 83 84 46 0 83-38 83-84 0-46-37-83-83-83-46 0-83 37-83 83z" horiz-adv-x="1000" />

<glyph glyph-name="linkedin" unicode="&#xe82e;" d="M917-67h-167c-25 0-42 17-42 42v292c0 25-16 41-41 41s-42-16-42-41v-292c0-25-17-42-42-42h-166c-25 0-42 17-42 42v292c0 162 129 291 292 291 162 0 291-129 291-291v-292c0-25-16-42-41-42z m-125 84h83v250c0 116-92 208-208 208s-209-92-209-208v-250h84v250c0 71 54 125 125 125s125-54 125-125v-250z m-542-84h-167c-25 0-41 17-41 42v500c0 25 16 42 41 42h167c25 0 42-17 42-42v-500c0-25-17-42-42-42z m-125 84h83v416h-83v-416z m42 541c-71 0-125 55-125 125s54 125 125 125 125-54 125-125-54-125-125-125z m0 167c-25 0-42-17-42-42s17-41 42-41 41 16 41 41-16 42-41 42z" horiz-adv-x="1000" />

<glyph glyph-name="list" unicode="&#xe82f;" d="M292 600c0 23 18 42 41 42h542c23 0 42-19 42-42 0-23-19-42-42-42h-542c-23 0-41 19-41 42z m0-250c0 23 18 42 41 42h542c23 0 42-19 42-42 0-23-19-42-42-42h-542c-23 0-41 19-41 42z m0-250c0 23 18 42 41 42h542c23 0 42-19 42-42 0-23-19-42-42-42h-542c-23 0-41 19-41 42z m-209 500c0 23 19 42 42 42h0c23 0 42-19 42-42 0-23-19-42-42-42h0c-23 0-42 19-42 42z m0-250c0 23 19 42 42 42h0c23 0 42-19 42-42 0-23-19-42-42-42h0c-23 0-42 19-42 42z m0-250c0 23 19 42 42 42h0c23 0 42-19 42-42 0-23-19-42-42-42h0c-23 0-42 19-42 42z" horiz-adv-x="1000" />

<glyph glyph-name="mail" unicode="&#xe830;" d="M167 642c-23 0-42-19-42-42v-500c0-23 19-42 42-42h666c23 0 42 19 42 42v500c0 23-19 42-42 42h-666z m-125-42c0 69 56 125 125 125h666c69 0 125-56 125-125v-500c0-69-56-125-125-125h-666c-69 0-125 56-125 125v500z m7 24c13 19 39 23 58 10l393-275 393 275c19 13 45 9 58-10 13-19 8-45-10-58l-417-292c-14-10-33-10-48 0l-417 292c-18 13-23 39-10 58z" horiz-adv-x="1000" />

<glyph glyph-name="meatballs" unicode="&#xe831;" d="M417 350c0 46 37 83 83 83 46 0 83-37 83-83 0-46-37-83-83-83-46 0-83 37-83 83z m291 0c0 46 38 83 84 83 46 0 83-37 83-83 0-46-37-83-83-83-46 0-84 37-84 83z m-583 0c0 46 37 83 83 83 46 0 84-37 84-83 0-46-38-83-84-83-46 0-83 37-83 83z" horiz-adv-x="1000" />

<glyph glyph-name="x" unicode="&#xe832;" d="M578 414l303 353h-72l-263-307-211 307h-242l318-463-318-370h71l279 323 222-323h243l-330 480h0z m-99-114l-32 46-257 367h111l207-297 32-46 269-385h-110l-220 315v0z" horiz-adv-x="1000" />

<glyph glyph-name="menu" unicode="&#xe833;" d="M83 350c0 23 19 42 42 42h750c23 0 42-19 42-42 0-23-19-42-42-42h-750c-23 0-42 19-42 42z m0 250c0 23 19 42 42 42h750c23 0 42-19 42-42 0-23-19-42-42-42h-750c-23 0-42 19-42 42z m0-500c0 23 19 42 42 42h750c23 0 42-19 42-42 0-23-19-42-42-42h-750c-23 0-42 19-42 42z" horiz-adv-x="1000" />

<glyph glyph-name="minus-circle" unicode="&#xe834;" d="M500 725c-207 0-375-168-375-375 0-207 168-375 375-375 207 0 375 168 375 375 0 207-168 375-375 375z m-458-375c0 253 205 458 458 458 253 0 458-205 458-458 0-253-205-458-458-458-253 0-458 205-458 458z m250 0c0 23 18 42 41 42h334c23 0 41-19 41-42 0-23-18-42-41-42h-334c-23 0-41 19-41 42z" horiz-adv-x="1000" />

<glyph glyph-name="minus-square" unicode="&#xe835;" d="M208 683c-23 0-41-18-41-41v-584c0-23 18-41 41-41h584c23 0 41 18 41 41v584c0 23-18 41-41 41h-584z m-125-41c0 69 56 125 125 125h584c69 0 125-56 125-125v-584c0-69-56-125-125-125h-584c-69 0-125 56-125 125v584z m209-292c0 23 18 42 41 42h334c23 0 41-19 41-42 0-23-18-42-41-42h-334c-23 0-41 19-41 42z" horiz-adv-x="1000" />

<glyph glyph-name="mobile" unicode="&#xe836;" d="M292 725c-23 0-42-19-42-42v-666c0-23 19-42 42-42h416c23 0 42 19 42 42v666c0 23-19 42-42 42h-416z m-125-42c0 69 56 125 125 125h416c69 0 125-56 125-125v-666c0-69-56-125-125-125h-416c-69 0-125 56-125 125v666z m291-583c0 23 19 42 42 42h0c23 0 42-19 42-42 0-23-19-42-42-42h0c-23 0-42 19-42 42z" horiz-adv-x="1000" />

<glyph glyph-name="move" unicode="&#xe837;" d="M262 490c14-14 14-38 0-53l-87-87 87-87c14-15 14-39 0-53-15-15-39-15-54 0l-114 113c-14 15-14 39 0 54l114 113c15 15 39 15 54 0z m211 266c15 14 39 14 54 0l113-114c15-15 15-39 0-54-14-14-38-14-53 0l-87 87-87-87c-15-14-39-14-53 0-15 15-15 39 0 54l113 114z m-113-644c14 14 38 14 53 0l87-87 87 87c15 14 39 14 53 0 15-15 15-39 0-54l-113-114c-15-14-39-14-54 0l-113 114c-15 15-15 39 0 54z m378 378c15 15 39 15 54 0l114-113c14-15 14-39 0-54l-114-113c-15-15-39-15-54 0-14 14-14 38 0 53l87 87-87 87c-14 15-14 39 0 53z m-655-140c0 21 17 38 38 38h758c21 0 38-17 38-38 0-21-17-38-38-38h-758c-21 0-38 17-38 38z m417 417c21 0 38-17 38-38v-758c0-21-17-38-38-38-21 0-38 17-38 38v758c0 21 17 38 38 38z" horiz-adv-x="1000" />

<glyph glyph-name="new" unicode="&#xe838;" d="M833-108h-666c-25 0-42 16-42 41v375h-42c-25 0-41 17-41 42v208c0 25 16 42 41 42h96c-8 21-12 42-12 63 0 79 66 145 146 145 95 0 154-66 187-129 33 63 92 129 188 129 79 0 145-66 145-145 0-21-4-42-12-63h96c25 0 41-17 41-42v-208c0-25-16-42-41-42h-42v-375c0-25-17-41-42-41z m-291 83h250v333h-250v-333z m-334 0h250v333h-250v-333z m334 417h333v125h-333v-125z m-417 0h333v125h-333v-125z m429 208h134c33 0 62 29 62 63s-29 62-62 62c-71 0-113-75-134-125z m-241 125c-34 0-63-29-63-62s29-63 63-63h133c-21 50-63 125-133 125z" horiz-adv-x="1000" />

<glyph glyph-name="outlet" unicode="&#xe839;" d="M804 642l-566-121h-96c-34 0-59-25-59-58v-192c0-33 25-58 59-58h25l54-155c8-25 29-41 58-41h84c37 0 62 33 58 66l-13 92 396-96c38-8 75 21 75 59v445c-4 38-37 67-75 59z m-641-350v154h79c4 0 8 0 12 0l71 12v-183l-67 17c-4 0-8 0-12 0h-83z m129-196l-38 117 71-17 8-100h-41z m504 67l-396 95v217l396 83v-395z" horiz-adv-x="1000" />

<glyph glyph-name="padlock" unicode="&#xe83a;" d="M208 350c-23 0-41-19-41-42v-291c0-23 18-42 41-42h584c23 0 41 19 41 42v291c0 23-18 42-41 42h-584z m-125-42c0 69 56 125 125 125h584c69 0 125-56 125-125v-291c0-69-56-125-125-125h-584c-69 0-125 56-125 125v291z m417 417c-44 0-87-18-118-49-31-31-49-73-49-118v-166c0-23-18-42-41-42-23 0-42 19-42 42v166c0 67 26 130 73 177 47 47 111 73 177 73 66 0 130-26 177-73 47-47 73-110 73-177v-166c0-23-19-42-42-42-23 0-41 19-41 42v166c0 45-18 87-49 118-31 31-74 49-118 49z" horiz-adv-x="1000" />

<glyph glyph-name="phone" unicode="&#xe83b;" d="M801-67h-9c-123 14-242 56-346 123-96 61-178 143-239 240-68 103-110 222-123 345-2 15 0 31 4 45 5 14 12 28 22 39 9 12 21 22 34 29 13 7 28 11 42 13h126c28 0 54-10 75-28 21-18 35-43 39-70 5-34 13-67 25-99 7-21 9-43 4-64-4-21-15-41-30-56l-27-28c44-70 104-129 174-174l27 27c16 16 35 26 57 31 21 5 43 3 64-5 32-12 65-20 98-24 28-4 53-18 71-39 18-21 28-48 28-75v-114c0-15-3-30-9-44-6-14-14-27-25-37-10-11-23-19-37-25-14-6-28-9-43-9l-2-1z m-489 758h-115c-5 0-11-2-16-4-5-2-9-6-13-10-6-8-9-18-8-28 11-107 46-210 102-302 57-91 133-169 224-227 94-60 200-98 312-111 5 0 11 1 16 3 5 2 9 5 13 9 4 3 6 8 8 12 2 5 3 10 3 15v114c0 9-3 18-9 25-6 7-14 12-24 13-38 5-77 15-114 28-6 3-14 3-21 2-7-1-14-5-19-10l-48-47c-5-6-13-9-21-11-9-1-17 1-24 5-101 57-185 141-243 243-4 7-6 15-5 23 1 9 5 16 11 22l48 48c5 5 8 12 10 18 1 7 1 14-1 20-14 37-24 75-29 114 0 10-5 19-12 25-7 7-16 11-25 11z" horiz-adv-x="1000" />

<glyph glyph-name="pie-chart" unicode="&#xe83c;" d="M372 749c9-21-1-46-22-55-56-25-105-62-144-110-38-48-63-105-75-165-11-60-7-122 11-181 18-58 51-111 94-154 44-43 97-75 156-93 59-18 121-21 181-9 60 12 116 39 164 77 47 39 85 89 108 145 9 21 34 31 55 22 21-9 31-33 22-54-29-69-75-130-133-177-58-48-126-80-200-94-73-15-149-11-221 10-72 22-137 61-190 113-53 53-93 118-115 189-23 72-27 148-14 221 14 74 46 143 92 201 47 59 107 105 176 135 21 10 45 0 55-21z m99 47c7 8 18 12 29 12 60 0 120-11 175-35 56-23 107-56 149-99 43-42 76-93 99-149 24-55 35-115 35-175 0-23-18-42-41-42h-417c-23 0-42 19-42 42v417c0 11 5 21 13 29z m71-73v-331h331c-4 35-13 69-26 102-19 45-47 86-82 121-35 35-76 63-121 82-33 13-67 22-102 26z" horiz-adv-x="1000" />

<glyph glyph-name="pin" unicode="&#xe83d;" d="M500 767c-88 0-173-35-236-98-62-62-97-147-97-236 0-129 84-254 176-351 45-48 90-87 124-114 13-10 24-19 33-25 9 6 20 15 33 25 34 27 79 66 124 114 92 97 176 222 176 351 0 89-35 174-97 236-63 63-148 98-236 98z m0-875c-23-35-23-35-23-35l0 0 0 0-1 1c-1 0-2 1-4 2-3 2-7 5-12 9-11 8-26 19-44 34-37 28-85 70-134 122-95 100-199 246-199 408 0 111 44 217 122 295 79 78 185 122 295 122 111 0 217-44 295-122 78-78 122-184 122-295 0-162-104-308-199-408-49-52-97-94-133-122-19-15-34-26-44-34-6-4-10-7-13-9-1-1-3-2-3-2l-1-1-1 0 0 0c0 0 0 0-23 35z m0 0l23-35c-14-9-32-9-46 0l23 35z m0 625c-46 0-83-38-83-84 0-46 37-83 83-83 46 0 83 37 83 83 0 46-37 84-83 84z m-167-84c0 92 75 167 167 167 92 0 167-75 167-167 0-92-75-166-167-166-92 0-167 74-167 166z" horiz-adv-x="1000" />

<glyph glyph-name="play" unicode="&#xe83e;" d="M500 725c-207 0-375-168-375-375 0-207 168-375 375-375 207 0 375 168 375 375 0 207-168 375-375 375z m-458-375c0 253 205 458 458 458 253 0 458-205 458-458 0-253-205-458-458-458-253 0-458 205-458 458z m355 203c14 8 30 7 43-2l250-166c11-8 18-21 18-35 0-14-7-27-18-35l-250-166c-13-9-29-10-43-2-13 7-22 21-22 36v334c0 15 9 29 22 36z m61-114v-178l134 89-134 89z" horiz-adv-x="1000" />

<glyph glyph-name="plus-circle" unicode="&#xe83f;" d="M500 725c-207 0-375-168-375-375 0-207 168-375 375-375 207 0 375 168 375 375 0 207-168 375-375 375z m-458-375c0 253 205 458 458 458 253 0 458-205 458-458 0-253-205-458-458-458-253 0-458 205-458 458z m458 208c23 0 42-18 42-41v-334c0-23-19-41-42-41-23 0-42 18-42 41v334c0 23 19 41 42 41z m-208-208c0 23 18 42 41 42h334c23 0 41-19 41-42 0-23-18-42-41-42h-334c-23 0-41 19-41 42z" horiz-adv-x="1000" />

<glyph glyph-name="plus-square" unicode="&#xe840;" d="M208 683c-23 0-41-18-41-41v-584c0-23 18-41 41-41h584c23 0 41 18 41 41v584c0 23-18 41-41 41h-584z m-125-41c0 69 56 125 125 125h584c69 0 125-56 125-125v-584c0-69-56-125-125-125h-584c-69 0-125 56-125 125v584z m417-84c23 0 42-18 42-41v-334c0-23-19-41-42-41-23 0-42 18-42 41v334c0 23 19 41 42 41z m-208-208c0 23 18 42 41 42h334c23 0 41-19 41-42 0-23-18-42-41-42h-334c-23 0-41 19-41 42z" horiz-adv-x="1000" />

<glyph glyph-name="plus" unicode="&#xe841;" d="M500 683c23 0 42-18 42-41v-584c0-23-19-41-42-41-23 0-42 18-42 41v584c0 23 19 41 42 41z m-333-333c0 23 18 42 41 42h584c23 0 41-19 41-42 0-23-18-42-41-42h-584c-23 0-41 19-41 42z" horiz-adv-x="1000" />

<glyph glyph-name="pr-opportunities" unicode="&#xe842;" d="M298 796c8 8 18 12 30 12h345c11 0 21-4 29-12l244-244c8-8 12-18 12-29v-345c0-11-4-22-12-30l-244-244c-8-8-18-12-29-12h-345c-12 0-22 4-30 12l-244 244c-8 8-12 19-12 30v345c0 11 4 21 12 29l244 244z m47-71l-220-220v-310l220-220h310l220 220v310l-220 220h-310z m155-167c23 0 42-18 42-41v-167c0-23-19-42-42-42-23 0-42 19-42 42v167c0 23 19 41 42 41z m-42-375c0 23 19 42 42 42h0c23 0 42-19 42-42 0-23-19-41-42-41h0c-23 0-42 18-42 41z" horiz-adv-x="1000" />

<glyph glyph-name="save" unicode="&#xe843;" d="M208 683c-11 0-21-4-29-12-8-8-12-18-12-29v-584c0-11 4-21 12-29 8-8 18-12 29-12h584c11 0 21 4 29 12 8 8 12 18 12 29v441l-184 184h-441z m-88 47c23 24 55 37 88 37h459c11 0 21-5 29-12l209-209c7-8 12-18 12-29v-459c0-33-13-65-37-88-23-24-55-37-88-37h-584c-33 0-65 13-88 37-23 23-37 55-37 88v584c0 33 14 65 37 88z m130-422c0 23 19 42 42 42h416c23 0 42-19 42-42v-333c0-23-19-42-42-42-23 0-41 19-41 42v292h-334v-292c0-23-18-42-41-42-23 0-42 19-42 42v333z m42 459c23 0 41-19 41-42v-167h292c23 0 42-18 42-41 0-23-19-42-42-42h-333c-23 0-42 19-42 42v208c0 23 19 42 42 42z" horiz-adv-x="1000" />

<glyph glyph-name="search" unicode="&#xe844;" d="M458 683c-161 0-291-130-291-291 0-161 130-292 291-292 161 0 292 131 292 292 0 161-131 291-292 291z m-375-291c0 207 168 375 375 375 207 0 375-168 375-375 0-207-168-375-375-375-207 0-375 168-375 375z m581-206c17 16 43 16 59 0l182-181c16-17 16-43 0-60-17-16-43-16-59 0l-182 182c-16 16-16 42 0 59z" horiz-adv-x="1000" />

<glyph glyph-name="send" unicode="&#xe845;" d="M906 756c14-15 14-39 0-54l-417-417c-15-14-39-14-54 0-14 15-14 39 0 54l417 417c15 14 39 14 54 0z m0 0c10-11 13-26 9-40l-266-757c-5-15-18-25-34-26-15 0-30 9-36 23l-146 327-327 146c-14 6-23 21-23 36 1 16 11 29 26 34l757 266c14 4 29 1 40-9z m-682-297l254-112c8-4 15-11 19-19l112-254 208 593-593-208z" horiz-adv-x="1000" />

<glyph glyph-name="share" unicode="&#xe846;" d="M197 388c21 0 38-17 38-38v-303c0-10 4-20 11-27 7-7 17-11 27-11h454c10 0 20 4 27 11 7 7 11 17 11 27v303c0 21 17 38 38 38 21 0 38-17 38-38v-303c0-30-12-59-33-80-22-22-51-34-81-34h-454c-30 0-59 12-81 34-21 21-33 50-33 80v303c0 21 17 38 38 38z m276 368c15 14 39 14 54 0l151-152c15-15 15-39 0-53-14-15-38-15-53 0l-125 124-125-124c-14-15-38-15-53 0-15 14-15 38 0 53l151 152z m27 11c21 0 38-17 38-38v-493c0-21-17-37-38-37-21 0-38 16-38 37v493c0 21 17 38 38 38z" horiz-adv-x="1000" />

<glyph glyph-name="sliders" unicode="&#xe847;" d="M167 308c23 0 41-18 41-41v-292c0-23-18-42-41-42-23 0-42 19-42 42v292c0 23 19 41 42 41z m0 459c23 0 41-19 41-42v-292c0-23-18-41-41-41-23 0-42 18-42 41v292c0 23 19 42 42 42z m333-375c23 0 42-19 42-42v-375c0-23-19-42-42-42-23 0-42 19-42 42v375c0 23 19 42 42 42z m0 375c23 0 42-19 42-42v-208c0-23-19-42-42-42-23 0-42 19-42 42v208c0 23 19 42 42 42z m333-542c23 0 42-19 42-42v-208c0-23-19-42-42-42-23 0-41 19-41 42v208c0 23 18 42 41 42z m0 542c23 0 42-19 42-42v-375c0-23-19-42-42-42-23 0-41 19-41 42v375c0 23 18 42 41 42z m-833-500c0 23 19 41 42 41h250c23 0 41-18 41-41 0-23-18-42-41-42h-250c-23 0-42 19-42 42z m333 250c0 23 19 41 42 41h250c23 0 42-18 42-41 0-23-19-42-42-42h-250c-23 0-42 19-42 42z m334-334c0 23 18 42 41 42h250c23 0 42-19 42-42 0-23-19-41-42-41h-250c-23 0-41 18-41 41z" horiz-adv-x="1000" />

<glyph glyph-name="star" unicode="&#xe848;" d="M500 748c14 0 28-8 34-21l108-219 242-36c15-2 26-12 31-25 4-14 1-29-10-39l-175-171 41-241c3-14-3-28-15-37-11-8-27-10-39-3l-217 114-216-114c-13-7-29-5-40 3-12 9-18 23-15 37l41 241-175 171c-10 10-14 25-10 39 5 13 17 23 31 25l242 36 108 219c6 13 20 21 34 21z m0-123l-83-169c-6-11-16-19-29-20l-185-27 134-131c9-9 13-22 11-34l-32-185 166 87c11 6 25 6 36 0l166-87-32 185c-2 12 2 25 11 34l134 131-185 27c-13 1-23 9-29 20l-83 169z" horiz-adv-x="1000" />

<glyph glyph-name="streams" unicode="&#xe849;" d="M159 519l1 0c80 69 144 124 318 26 83-47 150-65 206-65 98 0 161 55 216 102 20 17 22 47 6 67-17 20-46 22-65 5-81-69-145-124-319-26-229 129-336 37-422-37-20-17-22-47-6-67 17-20 46-22 65-5z m682-101l0 0c-81-70-145-125-319-27-229 130-336 38-422-36l0 0c-20-17-22-47-6-67 17-20 46-23 65-6l1 0c80 70 144 125 318 27 83-47 150-65 206-65 98 0 161 54 216 102 20 16 22 46 6 66-17 20-46 23-65 6z m-319-263c174-98 238-43 319 26 19 17 48 15 65-5 16-20 14-50-6-67l0 0c-55-47-118-102-216-102-56 0-123 18-206 65-174 98-238 43-319-26l0 0c-19-17-48-14-65 6-16 20-14 49 6 66 86 74 193 166 422 37z" horiz-adv-x="1000" />

<glyph glyph-name="thumb-down" unicode="&#xe84a;" d="M857 712c-10 9-23 13-37 13l0 0h-70v-375h70l0 0c14 0 27 4 37 13 9 8 16 20 18 32v285c-2 13-9 24-18 32z m-190-395l-151-338c-12 4-24 11-33 20-16 16-25 37-25 59v167c0 23-18 42-41 42h-236l-1 0c-6 0-12 1-17 3-6 3-11 6-15 11-3 5-6 10-8 16-2 6-2 12-1 18 0 0 0 0 0 0l57 375c2 10 7 19 14 25 8 7 18 10 28 10l429 0v-408z m152 491c34 1 67-11 92-33 26-22 42-53 47-86 0-2 0-4 0-6v-291c0-2 0-4 0-6-5-33-21-64-47-86-25-22-58-34-92-33h-84l-155-351c-7-15-22-24-38-24-44 0-87 17-118 48-31 32-49 74-49 118v125h-194c-18 0-36 4-52 11-17 8-31 19-43 32-12 14-21 30-26 48-5 17-6 35-4 53l58 375c0 0 0 0 0 0 4 30 20 57 42 77 23 19 53 30 83 29h580z" horiz-adv-x="1000" />

<glyph glyph-name="thumb-up" unicode="&#xe84b;" d="M420 784c7 15 22 24 38 24 45 0 87-17 118-48 31-32 49-74 49-118v-125h194c18 0 36-4 52-11 17-8 32-19 43-32 12-14 21-30 26-47 5-18 6-36 4-54l-58-375c0 0 0 0 0 0-4-30-19-57-42-77-23-19-52-30-83-29h-594c-33 0-65 13-89 36-23 24-36 55-36 89v291c0 34 13 65 36 89 24 23 56 36 89 36h98l155 351z m-87-401l151 338c12-4 24-11 33-20 16-16 25-37 25-59v-167c0-23 18-42 41-42h236l1 0c6 0 12-1 17-3 6-3 11-6 15-11 4-4 6-10 8-16 2-5 2-12 1-18 0 0 0 0 0 0l-57-375c-2-9-7-19-14-25-8-7-18-10-28-10l-429 0v408z m-83-408v375h-83c-11 0-22-4-30-12-8-8-12-19-12-30v-291c0-11 4-22 12-30 8-8 19-12 30-12h83z" horiz-adv-x="1000" />

<glyph glyph-name="thunder" unicode="&#xe84c;" d="M558 805c17-7 27-25 25-43l-36-287h328c16 0 31-9 38-24 7-15 4-32-6-44l-417-500c-11-15-31-19-48-12-17 7-27 25-25 43l36 287h-328c-16 0-31 9-38 24-7 15-4 32 6 44l417 500c12 15 31 19 48 12z m-344-497h286c12 0 23-5 31-14 8-9 12-21 10-32l-24-193 269 323h-286c-12 0-23 5-31 14-8 9-12 21-10 33l24 192-269-323z" horiz-adv-x="1000" />

<glyph glyph-name="tick-circle" unicode="&#xe84d;" d="M500 725c-207 0-375-168-375-375 0-207 168-375 375-375 207 0 375 168 375 375 0 207-168 375-375 375z m-458-375c0 253 205 458 458 458 253 0 458-205 458-458 0-253-205-458-458-458-253 0-458 205-458 458z m689 164c10-10 10-27 0-37l-292-291c-10-11-27-11-37 0l-133 132c-10 10-10 27 0 38 11 10 28 10 38 0l114-114 272 272c11 11 27 11 38 0z m-44 6c14 14 36 14 50 0l-6-6 6 6c13-13 13-35 0-49l-292-291c-13-14-35-14-49 0l-132 132c-14 14-14 36 0 49 13 14 35 14 49 0l108-107 266 266z m38-11c-7 7-19 7-26 0l-273-273c-3-3-8-3-11 0l-114 114c-7 7-19 7-26 0-7-7-7-19 0-26l133-132c7-8 18-8 25 0l292 291c7 7 7 18 0 26z" horiz-adv-x="1000" />

<glyph glyph-name="tick" unicode="&#xe84e;" d="M863 630c16-17 16-43 0-59l-458-459c-17-16-43-16-59 0l-209 209c-16 16-16 42 0 59 17 16 43 16 59 0l179-179 429 429c16 16 43 16 59 0z m-65 5c20 20 51 20 71 0l-6-5 6 5c19-19 19-51 0-70l-459-459c-19-19-51-19-70 0l-209 209c-19 19-19 51 0 70 20 20 52 20 71 0l173-173 423 423z m59-11c-13 13-34 13-47 0l-429-429c-3-4-9-4-12 0l-179 179c-13 13-34 13-47 0-13-13-13-35 0-48l208-208c13-13 35-13 48 0l458 458c13 13 13 35 0 48z" horiz-adv-x="1000" />

<glyph glyph-name="pin-1" unicode="&#xe84f;" d="M863 233c0 0 0 0 0 0 0 5 0 5 0 9 0 4 0 12-5 25-4 21-8 46-20 71-21 50-59 108-134 141v84l50 150c4 12 0 25-4 33-4 17-17 21-29 21h-442c-12 0-25-4-33-17-4-8-8-21-4-33l50-150v-84c-75-33-113-91-134-141-12-29-16-54-20-71 0-8-5-17-5-25 0-4 0-4 0-8 0 0 0 0 0 0l0 0 0 0v0 0h25c-25 0-25 0-25 0 0-21 17-38 38-38h287v-221c0-21 17-37 38-37s37 16 37 37v221h288c25-8 46 13 42 33l-38 0c42 0 42 0 38 0l0 0 0 0 0 0z m-642 38c4 12 4 25 12 37 17 42 50 88 113 109 17 4 25 21 25 37v117c0 4 0 8 0 12l-38 105h334l-34-105c0-4 0-8 0-12v-117c0-16 13-33 25-37 63-21 96-67 113-109 4-12 8-25 12-37h-562z" horiz-adv-x="1000" />

<glyph glyph-name="upload" unicode="&#xe850;" d="M125 267c23 0 42-19 42-42v-167c0-11 4-21 12-29 8-8 18-12 29-12h584c11 0 21 4 29 12 8 8 12 18 12 29v167c0 23 19 42 42 42 23 0 42-19 42-42v-167c0-33-13-65-37-88-23-24-55-37-88-37h-584c-33 0-65 13-88 37-23 23-37 55-37 88v167c0 23 19 42 42 42z m346 488c16 16 42 16 59 0l208-209c16-16 16-42 0-59-16-16-43-16-59 0l-179 179-179-179c-16-16-42-16-59 0-16 17-16 43 0 59l209 209z m29 12c23 0 42-19 42-42v-500c0-23-19-42-42-42-23 0-42 19-42 42v500c0 23 19 42 42 42z" horiz-adv-x="1000" />

<glyph glyph-name="user" unicode="&#xe851;" d="M186 206c39 39 92 61 147 61h334c55 0 108-22 147-61 39-39 61-92 61-148v-83c0-23-19-42-42-42-23 0-41 19-41 42v83c0 34-13 65-37 89-23 23-55 36-88 36h-334c-33 0-65-13-88-36-23-24-37-55-37-89v-83c0-23-18-42-41-42-23 0-42 19-42 42v83c0 56 22 109 61 148z m314 477c-69 0-125-56-125-125 0-69 56-125 125-125 69 0 125 56 125 125 0 69-56 125-125 125z m-208-125c0 115 93 209 208 209 115 0 208-94 208-209 0-115-93-208-208-208-115 0-208 93-208 208z" horiz-adv-x="1000" />

<glyph glyph-name="warning-circle" unicode="&#xe852;" d="M500 725c-207 0-375-168-375-375 0-207 168-375 375-375 207 0 375 168 375 375 0 207-168 375-375 375z m-458-375c0 253 205 458 458 458 253 0 458-205 458-458 0-253-205-458-458-458-253 0-458 205-458 458z m458 208c23 0 42-18 42-41v-167c0-23-19-42-42-42-23 0-42 19-42 42v167c0 23 19 41 42 41z m-42-375c0 23 19 42 42 42h0c23 0 42-19 42-42 0-23-19-41-42-41h0c-23 0-42 18-42 41z" horiz-adv-x="1000" />

<glyph glyph-name="warning-triangle" unicode="&#xe853;" d="M439 755c18 10 40 16 61 16 22 0 43-6 61-16 19-11 35-26 46-44l0 0 353-590 0 0c11-19 17-40 17-62 0-22-6-44-16-63-11-19-27-34-46-45-18-12-40-17-62-18l0 0-706 0c-22 1-44 6-62 18-19 11-35 26-46 45-10 19-16 41-16 63 0 22 6 43 17 62l0 0 353 590 36-22-36 22c11 18 27 33 46 44z m25-87l-352-589c-4-6-6-13-6-21 0-7 2-14 6-20 3-7 9-12 15-16 6-3 13-5 20-5h706c7 0 14 2 20 5 6 4 12 9 15 16 4 6 6 13 6 20 0 8-2 15-6 21l-352 589 0 0c-4 6-9 11-16 14-6 4-13 6-20 6-7 0-14-2-20-6-7-3-12-8-16-14z m36-151c23 0 42-19 42-42v-167c0-23-19-41-42-41-23 0-42 18-42 41v167c0 23 19 42 42 42z m-42-375c0 23 19 41 42 41h0c23 0 42-18 42-41 0-23-19-42-42-42h0c-23 0-42 19-42 42z" horiz-adv-x="1000" />

<glyph glyph-name="zoom-in" unicode="&#xe854;" d="M458 683c-161 0-291-130-291-291 0-161 130-292 291-292 161 0 292 131 292 292 0 161-131 291-292 291z m-375-291c0 207 168 375 375 375 207 0 375-168 375-375 0-207-168-375-375-375-207 0-375 168-375 375z m581-206c17 16 43 16 59 0l182-181c16-17 16-43 0-60-17-16-43-16-59 0l-182 182c-16 16-16 42 0 59z m-206 372c23 0 42-18 42-41v-250c0-23-19-42-42-42-23 0-41 19-41 42v250c0 23 18 41 41 41z m-166-166c0 23 18 41 41 41h250c23 0 42-18 42-41 0-23-19-42-42-42h-250c-23 0-41 19-41 42z" horiz-adv-x="1000" />

<glyph glyph-name="zoom-out" unicode="&#xe855;" d="M458 683c-161 0-291-130-291-291 0-161 130-292 291-292 161 0 292 131 292 292 0 161-131 291-292 291z m-375-291c0 207 168 375 375 375 207 0 375-168 375-375 0-207-168-375-375-375-207 0-375 168-375 375z m581-206c17 16 43 16 59 0l182-181c16-17 16-43 0-60-17-16-43-16-59 0l-182 182c-16 16-16 42 0 59z m-372 206c0 23 18 41 41 41h250c23 0 42-18 42-41 0-23-19-42-42-42h-250c-23 0-41 19-41 42z" horiz-adv-x="1000" />

<glyph glyph-name="monitor" unicode="&#xe856;" d="M167 683c-25 0-42-16-42-41v-417c0-25 17-42 42-42h666c25 0 42 17 42 42v417c0 25-17 41-42 41h-666z m-125-41c0 71 54 125 125 125h666c71 0 125-54 125-125v-417c0-71-54-125-125-125h-666c-71 0-125 54-125 125v417z m250-667c0 25 16 42 41 42h334c25 0 41-17 41-42s-16-42-41-42h-334c-25 0-41 17-41 42z m208 125c25 0 42 0 42 0v-83c0 0-17 0-42 0s-42 0-42 0v83c0 0 17 0 42 0z" horiz-adv-x="1000" />

<glyph glyph-name="archive-press-release" unicode="&#xe857;" d="M304 658c-21 0-37-16-37-37v-375c0-21-17-38-38-38-21 0-37 17-37 38v375c0 62 54 117 116 117h250c21 0 42-9 59-25l50-46c16-17 16-42 0-54-17-17-42-17-54 0l-50 50c0 0-5 0-5 0h-254z m484-162c20 0 37-17 37-38v-375c0-62-54-116-117-116h-391c-21 0-38 16-38 37 0 21 17 38 38 38h391c21 0 38 16 38 37v375c0 21 21 42 42 42z m-471-50c0 21 16 37 37 37h84c20 0 37-16 37-37 0-21-17-38-37-38h-84c-21 0-37 17-37 38z m279-129c0 21 17 37 37 37h34c21 0 37-16 37-37 0-21-16-38-37-38h-29c-25-4-42 13-42 38z m-129-146c0 21 16 37 37 37h159c20 0 37-16 37-37 0-21-17-38-37-38h-159c-21 0-37 17-37 38z m391 517c17-17 13-42 0-55l-662-633c-17-17-42-13-54 0s-13 42 0 54l662 634c13 16 38 16 54 0z" horiz-adv-x="1000" />

<glyph glyph-name="archive-campaign" unicode="&#xe858;" d="M213 608c-21 0-38-16-38-37v-346c0-21-17-37-37-37s-34 16-34 37v346c0 58 50 108 109 108h383c21 0 37-16 37-37 0-21-16-38-37-38h-383z m675 0c20 0 37-16 37-37v-358c0-59-50-109-108-109h-263v-83h113c21 0 37-17 37-38 0-21-16-37-37-37h-300c-21 0-38 16-38 37 0 21 17 38 38 38h112v83h-71c-20 0-33 17-33 38 0 21 17 37 38 37h404c21 0 37 17 37 38v354c-4 21 13 37 34 37z m-5 134c13-17 13-38-4-50l-741-688c-17-12-38-12-50 0-13 17-13 38 4 50l741 688c13 12 38 12 50 0z" horiz-adv-x="1000" />

<glyph glyph-name="templates" unicode="&#xe859;" d="M208 683c-25 0-41-16-41-41v-584c0-25 16-41 41-41h584c25 0 41 16 41 41v584c0 25-16 41-41 41h-584z m-125-41c0 71 55 125 125 125h584c71 0 125-54 125-125v-584c0-71-54-125-125-125h-584c-70 0-125 54-125 125v584z m84-167c0 25 0 42 0 42h666c0 0 0-17 0-42s0-42 0-42h-666c0 0 0 17 0 42z m208-42c25 0 42 0 42 0v-416c0 0-17 0-42 0s-42 0-42 0v416c0 0 17 0 42 0z" horiz-adv-x="1000" />

<glyph glyph-name="facebook" unicode="&#xe85a;" d="M434 700c43 43 100 67 161 67h113c21 0 38-17 38-38v-152c0-21-17-38-38-38h-113v-75h113c12 0 23-6 30-15 7-9 10-21 7-32l-38-152c-4-17-19-29-36-29h-76v-265c0-21-17-38-38-38h-152c-21 0-38 17-38 38v265h-75c-21 0-38 17-38 38v152c0 21 17 38 38 38h75v75c0 61 24 119 67 161z m161-9c-40 0-79-16-107-44-29-29-45-67-45-108v-113c0-21-17-38-38-38h-75v-76h75c21 0 38-17 38-38v-265h76v265c0 21 17 38 38 38h84l19 76h-103c-21 0-38 17-38 38v113c0 21 8 40 22 54 14 14 34 22 54 22h76v76h-76z" horiz-adv-x="1000" />

<glyph glyph-name="sector" unicode="&#xe85b;" d="M42 767c0 23 18 41 41 41h417c11 0 22-4 30-12l358-358c23-23 36-55 36-88 0-33-13-65-36-88l-1 0-298-299c0 0 0 0 0 0-12-12-26-21-41-27-15-6-31-10-48-10-16 0-32 4-48 10-15 6-29 15-40 27 0 0 0 0 0 0l-358 358c-8 7-12 18-12 29v417z m83-42v-358l346-345 0 0c4-4 8-7 13-9 5-2 11-3 16-3 6 0 11 1 16 3 5 2 10 5 14 9l298 299c0 0 0 0 0 0 8 8 13 18 13 29 0 11-5 22-13 29 0 0 0 0 0 0l-345 346h-358z m125-167c0 23 19 42 42 42h0c23 0 42-19 42-42 0-23-19-41-42-41h0c-23 0-42 18-42 41z" horiz-adv-x="1000" />

<glyph glyph-name="microphone" unicode="&#xe85c;" d="M402 726c26 26 61 41 98 41 37 0 72-15 98-41 26-26 41-61 41-98v-278c0-37-15-72-41-98-26-26-61-41-98-41-37 0-72 15-98 41-26 26-41 61-41 98v278c0 37 15 72 41 98z m98-29c-18 0-36-7-49-20-13-13-20-31-20-49v-278c0-18 7-36 20-49 13-13 31-20 49-20 18 0 36 7 49 20 13 13 20 31 20 49v278c0 18-7 36-20 49-13 13-31 20-49 20z m-243-243c19 0 35-15 35-35v-69c0-55 22-108 61-147 39-39 92-61 147-61 55 0 108 22 147 61 39 39 61 92 61 147v69c0 20 16 35 35 35 19 0 35-15 35-35v-69c0-74-29-144-82-196-52-52-122-82-196-82-74 0-144 30-196 82-52 52-82 122-82 196v69c0 20 16 35 35 35z m243-312c19 0 35-16 35-35v-139c0-19-16-35-35-35-19 0-35 16-35 35v139c0 19 16 35 35 35z m-174-174c0 19 16 35 35 35h278c19 0 35-16 35-35 0-19-16-35-35-35h-278c-19 0-35 16-35 35z" horiz-adv-x="1000" />

<glyph glyph-name="info-card" unicode="&#xe85d;" d="M827 23h-654c-24 0-47 9-63 26-17 17-27 39-27 63v476c0 24 10 47 27 63 16 17 39 26 63 26h654c24 0 47-9 64-26 16-16 26-39 26-63v-476c0-24-10-46-26-63-17-17-40-26-64-26z m-654 595c-8 0-16-3-21-9-6-5-9-13-9-21v-476c0-8 3-16 9-21 5-6 13-9 21-9h654c8 0 16 3 21 9 6 5 9 13 9 21v476c0 8-3 16-9 21-5 6-13 9-21 9h-654z m58-322c18 18 41 27 66 27h148c25 0 48-9 66-27 17-17 27-41 27-65v-37c0-11-8-19-19-19-10 0-18 8-18 19v37c0 14-6 29-16 39-11 10-25 16-40 16h-148c-15 0-29-6-40-16-10-10-16-25-16-39v-37c0-11-8-19-18-19-11 0-19 8-19 19v37c0 24 10 48 27 65z m140 213c-31 0-56-25-56-56 0-30 25-55 56-55 31 0 56 25 56 55 0 31-25 56-56 56z m-93-56c0 52 42 93 93 93 51 0 93-41 93-93 0-51-42-92-93-92-51 0-93 41-93 92z m429-53c0-12-10-22-22-22l-87 0c-12 0-22 10-22 22 0 12 10 22 22 22l87 0c12 0 22-10 22-22z m0-79c0-12-10-22-22-22l-87 0c-12 0-22 10-22 22 0 12 10 22 22 22l87 0c12 0 22-10 22-22z m89 0c0-12-10-22-22-22l-87 0c-12 0-22 10-22 22 0 12 10 22 22 22l87 0c12 0 22-10 22-22z" horiz-adv-x="1000" />

<glyph glyph-name="media-requests" unicode="&#xe85e;" d="M725 653c-106 0-192-86-192-192 0-106 86-192 192-192 27 0 52 6 76 16-33-73-83-134-142-166-18-10-25-33-15-52 7-13 20-20 34-20 6 0 12 1 18 5 128 69 221 241 221 409 0 106-86 192-192 192z m-450 0c-106 0-192-86-192-192 0-106 86-192 192-192 27 0 53 6 76 16-32-73-83-134-141-166-19-10-26-33-16-52 7-13 21-20 34-20 6 0 13 1 19 5 127 69 220 241 220 409 0 106-86 192-192 192z m0 0c-106 0-192-86-192-192 0-106 86-192 192-192 23 0 44 4 64 11 4 2 8 3 12 5-1-4-3-8-5-12-33-67-81-124-136-154-19-10-26-33-16-52 7-13 21-20 34-20 6 0 13 1 19 5 127 69 220 241 220 409 0 106-86 192-191 192 0 0 0 0-1 0 0 0 0 0 0 0z m-73-582c6-9 16-15 26-15 5 0 10 1 14 4 125 67 216 236 216 401 0 101-82 183-183 183-100 0-183-82-183-183 0-101 83-183 183-183 26 0 50 6 73 15l21 10-9-22c-33-74-85-137-146-170m-12-40c-7 15-2 32 12 40z" horiz-adv-x="1000" />

<glyph glyph-name="folder-plus" unicode="&#xe85f;" d="M42 571c0 22 19 39 43 39h716c87 0 157-64 157-143v-390c0-80-70-144-157-144h-602c-87 0-157 64-157 144v494z m86-39v-455c0-36 32-65 71-65h602c39 0 71 29 71 65v390c0 36-32 65-71 65h-673z m372-99c23 0 42-18 42-41v-250c0-23-19-42-42-42-23 0-42 19-42 42v250c0 23 19 41 42 41z m-167-166c0 23 19 41 42 41h250c23 0 42-18 42-41 0-23-19-42-42-42h-250c-23 0-42 19-42 42z m-291 356c0 80 70 144 157 144h233c58 0 111-29 138-75l54-89c11-19 3-43-17-53-21-10-47-3-59 16l-53 89c-13 21-37 34-63 34h-233c-39 0-71-30-71-66v-221c0-21-20-39-43-39-24 0-43 18-43 39v221z" horiz-adv-x="1000" />

<glyph glyph-name="twitter" unicode="&#xe860;" d="M578 414l303 353h-72l-263-307-211 307h-242l318-463-318-370h71l279 323 222-323h243l-330 480h0z m-99-114l-32 46-257 367h111l207-297 32-46 269-385h-110l-220 315v0z" horiz-adv-x="1000" />

<glyph glyph-name="pin-selected" unicode="&#xe861;" d="M247 750c7 11 19 17 32 17h442c13 0 25-6 32-17 7-10 9-23 5-35l-50-150v-84c75-34 114-92 134-142 11-28 17-54 20-73 1-10 2-18 2-23 0-3 1-5 1-7 0-1 0-2 0-2l0-1 0 0 0 0c0 0 0 0-39 0h39c0-22-18-39-39-39h-651c-22 0-40 17-40 39h40c-40 0-40 0-40 0l0 0 0 0 0 0 0 1c0 0 0 1 1 2 0 2 0 4 0 7 0 5 1 13 2 23 3 19 9 45 20 73 20 50 59 108 134 142v84l-50 150c-4 12-2 25 5 35z m253-491c22 0 39-18 39-39v-248c0-21-17-39-39-39-22 0-39 18-39 39v248c0 21 17 39 39 39z" horiz-adv-x="1000" />

<glyph glyph-name="whatsapp" unicode="&#xe864;" d="M700 292c-2 1-62 31-73 35-5 1-9 3-14 3-9 0-15-4-21-12-6-9-24-31-30-37-1-1-2-2-2-2-1 0-10 4-13 5-65 28-115 96-121 108-1 1-1 2-1 2 0 1 2 3 3 4 3 4 7 8 10 12 2 2 4 4 5 6 5 6 8 10 10 16l2 2c6 13 0 24-1 27-2 3-27 65-30 71-7 16-15 23-27 23-1 0 0 0-5 0-6 0-37-4-51-13-14-9-39-38-39-90 0-46 30-90 42-107 1 0 1-1 2-2 48-71 109-123 170-147 59-24 86-27 102-27h0c7 0 12 1 17 1l3 1c20 1 65 25 75 53 8 22 10 46 5 55-4 6-10 9-18 13z m-193 475c-225 0-409-182-409-406 0-73 20-144 56-206l-70-207c-1-4 0-9 2-11 3-3 5-4 8-4 1 0 2 0 3 1l217 69c59-32 126-49 193-49 226 0 410 183 410 407 0 224-184 406-410 406z m0-728c-63 0-125 18-178 53-2 1-4 2-6 2-1 0-2 0-3-1l-108-34 34 103c2 3 1 7-1 10-40 55-62 120-62 189 0 177 146 321 324 321 179 0 325-144 325-321 0-178-146-322-325-322z" horiz-adv-x="1000" />

<glyph glyph-name="users" unicode="&#xe865;" d="M70 185c44 45 105 70 168 70h381c63 0 124-25 168-70 45-44 70-105 70-168v-96c0-26-21-47-47-47-27 0-48 21-48 47v96c0 38-15 74-42 101-27 27-63 42-101 42h-381c-38 0-74-15-101-42-27-27-42-63-42-101v-96c0-26-21-47-47-47-27 0-48 21-48 47v96c0 63 25 124 70 168z m359 546c-79 0-143-64-143-143 0-79 64-143 143-143 79 0 142 64 142 143 0 79-63 143-142 143z m-238-143c0 132 106 238 238 238 131 0 238-106 238-238 0-131-107-238-238-238-132 0-238 107-238 238z m715-375c7 25 33 41 58 34 51-13 97-43 129-84 32-42 50-93 50-146v-96c0-26-21-47-48-47-26 0-47 21-47 47v96c0 0 0 0 0 0 0 31-11 62-30 87-20 25-47 43-77 51-26 7-41 33-35 58z m-190 571c6 26 32 41 58 35 51-13 96-43 129-85 32-42 50-93 50-146 0-53-18-104-50-146-33-42-78-72-129-85-26-6-52 9-58 35-7 25 9 51 34 58 31 7 58 25 78 50 19 25 30 56 30 88 0 32-11 63-30 88-20 25-47 43-78 50-25 7-41 33-34 58z" horiz-adv-x="1143" />

<glyph glyph-name="company" unicode="&#xe866;" d="M722 767h-444c-22 0-43-9-59-25-16-15-25-36-25-59v-666c0-22 9-44 25-59 16-16 37-25 59-25h444c22 0 44 9 59 25 16 15 25 37 25 59v666c0 23-9 44-25 59-15 16-37 25-59 25z m-278-778v139c0 7 3 14 9 20 5 5 12 8 19 8h56c7 0 14-3 19-8 6-6 9-13 9-20v-139h-112z m306 28c0-8-3-15-8-20-5-5-12-8-20-8h-111v139c0 22-9 43-24 59-16 15-37 24-59 24h-56c-22 0-43-9-59-24-15-16-24-37-24-59v-139h-111c-8 0-15 3-20 8-5 5-8 12-8 20v666c0 8 3 15 8 20 5 5 12 8 20 8h444c8 0 15-3 20-8 5-5 8-12 8-20v-666z m-306 639h-111c-7 0-14-3-19-8-5-6-8-13-8-20v-111c0-8 3-15 8-20 5-5 12-8 19-8h111c8 0 15 3 20 8 5 5 8 12 8 20v111c0 7-3 14-8 20-5 5-12 8-20 8z m-27-111h-56v55h56v-55z m250 111h-111c-8 0-15-3-20-8-5-6-8-13-8-20v-111c0-8 3-15 8-20 5-5 12-8 20-8h111c7 0 14 3 19 8 6 5 8 12 8 20v111c0 7-2 14-8 20-5 5-12 8-19 8z m-28-111h-56v55h56v-55z m-195-112h-111c-7 0-14-2-19-8-5-5-8-12-8-19v-111c0-8 3-15 8-20 5-5 12-8 19-8h111c8 0 15 3 20 8 5 5 8 12 8 20v111c0 7-3 14-8 19-5 6-12 8-20 8z m-27-111h-56v56h56v-56z m250 111h-111c-8 0-15-2-20-8-5-5-8-12-8-19v-111c0-8 3-15 8-20 5-5 12-8 20-8h111c7 0 14 3 19 8 6 5 8 12 8 20v111c0 7-2 14-8 19-5 6-12 8-19 8z m-28-111h-56v56h56v-56z" horiz-adv-x="1000" />

<glyph glyph-name="mastodon" unicode="&#xe86c;" d="M367 823c-50-3-97-9-127-18-51-15-95-41-133-80-49-49-73-106-80-190-4-52 1-224 9-297 5-52 19-120 29-147 21-57 63-107 123-148 50-33 116-56 190-65 31-4 102-3 131 2 32 5 55 11 84 20 61 20 87 40 97 73 3 8 3 15 3 48 0 21 0 40-1 44l0 6 16 4c115 26 189 101 209 212 6 32 7 53 7 172 1 112 0 115-3 133-16 87-72 158-154 197-41 19-76 27-157 33-29 2-210 3-243 1m164-73c103-2 148-7 182-19 76-27 127-88 136-162 3-20 3-119 1-198-2-44-3-59-5-72-9-41-23-69-47-95-47-50-111-68-264-73-71-3-127 1-181 12-12 3-23 5-23 4-3-1 4-37 10-50 6-16 21-32 39-42 8-5 26-11 41-14 38-7 109-3 172 10 14 3 26 5 26 4 1 0 2-14 2-31v-31l-7-4c-15-10-58-25-93-32-76-14-151-9-225 15-54 18-110 60-140 106-18 27-24 43-34 91-13 66-16 107-21 262-3 99 3 149 23 190 31 64 93 107 173 120 34 6 57 8 106 9 63 2 68 2 129 0m-205-121a125 125 0 0 1-66-38c-16-18-26-37-34-66-3-13-3-16-4-144l0-131 54 0 54 0 1 121c1 81 2 122 3 125 5 14 13 23 24 26 10 3 31 1 39-3 14-7 22-21 24-45 1-8 2-44 2-79v-63h109l1 76c0 71 1 78 3 85 9 23 22 32 48 30 15-1 24-5 30-14 9-13 9-12 10-141l0-118 55 0 54 0v126c0 137 0 137-9 164-14 44-44 74-87 87-11 3-15 4-40 4-30 0-37-1-56-9-22-10-44-30-58-54-3-5-5-8-6-8 0 0-3 3-5 7-15 28-42 51-73 60-16 4-57 6-73 2" horiz-adv-x="951" />

<glyph glyph-name="bluesky" unicode="&#xe86d;" d="M167 794a132 132 0 0 1-99-82c-17-41-18-71-7-206 10-115 16-146 33-183 14-30 40-62 64-81l8-6-7-15c-5-8-10-21-13-30-4-14-4-19-4-41-1-16 0-30 2-36 11-46 30-80 65-118 62-65 124-97 186-93a163 163 0 0 1 86 30c14 9 36 29 47 43l5 7 6-7c11-14 33-34 47-43 71-50 157-38 238 31 46 39 79 84 92 126 8 26 9 33 9 59 0 29-3 44-16 70l-8 17 8 6c24 19 49 51 63 81 16 32 22 61 29 133 12 126 14 193 8 222-7 34-19 59-39 79-55 56-143 52-235-10-58-39-118-101-181-188-11-15-20-27-21-27 0 0-9 12-20 27-99 137-193 215-282 233-19 4-48 5-64 2m55-82c16-4 55-23 74-37 43-31 92-83 142-149 35-47 69-101 87-137 4-8 8-15 8-15 1 0 5 7 9 15 10 21 34 60 53 88 58 88 123 160 176 198 19 14 57 33 74 38 17 4 41 4 52-1 23-11 34-33 36-72 1-20-3-81-10-161-8-79-11-97-24-124-24-50-73-81-140-88-10-1-26-2-36-1l-18 1 10-3c50-13 89-34 110-60 13-16 21-38 21-57 0-21-11-50-28-74-10-15-44-48-60-60-25-19-55-31-76-31-25 0-47 11-69 32-29 29-49 66-70 127-5 14-9 25-10 25 0 0-5-11-9-25-21-61-41-98-70-127-29-28-57-37-92-28-28 7-54 24-86 56-30 30-45 54-52 82a85 85 0 0 0 6 62c17 34 61 62 122 78l10 3-20-1c-23-1-53 2-76 9-44 13-79 42-98 80-13 27-16 44-24 124-7 74-11 142-10 162 2 43 17 67 45 74 9 2 29 1 43-3" horiz-adv-x="1067" />
</font>
</defs>
</svg>
